Oblivion (2013) 2160p 4K UltraHD BluRay (x265 HEVC 10bit) DTSHD En DTSHRA Fr MSubs+ REMUX

Producer: Joseph Kosinski
Cast:Tom Cruise, Morgan Freeman, Olga Kurylenko, Andrea Riseborough, Nikolaj Coster-Waldau, Melissa Leo, Zo Bell, Abigail Lowe, Isabelle Lowe, David Madison...
IMDB 7.00
File Size 58.80+58.72 GB
Film description
The earth, which survived the war with the alien invaders, was emptied; The remnants of mankind are preparing to leave an uninhabitable planet. The main character - a technician for the maintenance of drones - finds a crashed NASA ship, whose crew is dying before his eyes. He manages to save only one woman - and soon he realizes that this will turn his life around.
Feedback:
Oblivion is something unique, perfectly fulfilled future. The design and functional component of the equipment is amazing with realism, the heaped machines break down, the technique shows signs of use - scratches and dirt. Futuristic architecture: the pool and the glass walls of the towers are a fascinating sight.

Hollywood is a machine for zombifying and making money. To stimulate patriotism, the main Oscar was given for not the best film about spies. The US president is captured by North Korean terrorists - this is generally ridiculous and less plausible than the scavenger aliens in Oblivion. Obviously, the consciousness of the masses is being prepared for the next triumph of democracy, this time on the Korean peninsula! Stamping sequels sometimes comes to the point of absurdity - every new franchise film is more colorful and moreaction, but the plot on the contrary becomes scarier, becomes illogical, sometimes stupid.

Oblivion - it's quite another matter the story will surprise you, even if you looked at all the trailers and read a lot of descriptions. You should watch it necessarily and better at the cinema, you will see all the dignity yourself, but I will tell you about the shortcomings.

Tom Cruise - a typical superhero-narcissus, effectively fights, chases on cars and motorcycles, just admiring every action. But he did not manage to fill his everyday space with "soulfulness", even Bob in an aircraft - so, an empty bauble, although she was given film time and the director, most likely wanted from an actor of spirituality.

O. Kurylenko, according to Cruise, pulled the whole film. But watch her, I did not believe her sincerity in any episode, although she played the obvious things. Funny episode, when Cruz and Kurilenko fly together and depict overload.

But Andrea Reizborough played a fanatical lawyer with a brainwashed well, finally giving her to understand that she is also tormented by flash memory, she understands that everything is strange, but still obeys the rules.

These are minor shortcomings, rather cavils.

M. Freeman, so cool that he just is in the movie.

All this galaxy replayed the drone, which was thrown by Jack (Cruz) on the wreckage of the spacecraft Odyssey. In general, the technique in the film is live, in the best traditions of Delorian from "Back to the Future".

Kosinski, in my opinion, talent removes high-quality films on the brink of copyright on the one hand and for the sake of Hollywood, with moderate USA patriotism and less logical action and plot on the other. Kosinski - creates for Hollywood the most author's cinema, for today!

I went to the movies spontaneously and did not know who the director was, but almost immediately suspected a resemblance to Throne 2, the soundtrack contributed a lot to it. At first I thought it was Daft Punk and they made this soundtrack in the same style as Tronovsky, but this is not my familiar M83, and probably the director screamed at them when they once again brought him the wrong sound, after which they slightly Began to imitate their more eminent countrymen.
2160p UHD 4K Blu-Ray Rip
HEVC 10 Bits BT709

English DTSHD-MA 7.1 Audio
French DTSHD-HR 7.1 Audio

Eglish + French Subtitle(s)


Oblivion (2013) 2160p 4K UltraHD BluRay (x265 HEVC 10bit) DTSHD En DTSHRA Fr MSubs.mkv
Note:
Audio + Subs + Chapter files are from BD50 HD Blu-Ray synced and mixed to UHD-4K Video from ZEUS.

High End CPU + GPU is required to play very high bitrate 4K.
Fully tested with :
- PC with PotPlayer V 1.6 / Xeon Broadwell CPU / NVidia GTX1080
- Nvidia Shield streaming through PLEX on Samsung TV

Format : Matroska
File size : 58.8 GiB
Duration : 2 h 5 min
Overall bit rate : 67.3 Mb/s

Video
Format : HEVC
Format/Info : High Efficiency Video Coding
Format profile : Main 10@L6.1@Main
Codec ID : V_MPEGH/ISO/HEVC
Duration : 2 h 5 min
Bit rate : 60.3 Mb/s
Width : 3 840 pixels
Height : 2 160 pixels
Display aspect ratio : 16:9
Frame rate mode : Constant
Frame rate : 23.976 (24000/1001) FPS
Color space : YUV
Chroma subsampling : 4:2:0
Bit depth : 10 bits
Bits/(Pixel*Frame) : 0.303
Stream size : 52.6 GiB (90%)
Writing library : x265 1.9+3-63308f7658c3:[Windows][GCC 5.2.0][64 bit] 10bit
Encoding settings : wpp / ctu=64 / min-cu-size=8 / max-tu-size=32 / tu-intra-depth=1 / tu-inter-depth=1 / me=1 / subme=2 / merange=57 / no-rect / no-amp / max-merge=2 / temporal-mvp / no-early-skip / rdpenalty=0 / no-tskip / no-tskip-fast / strong-intra-smoothing / no-lossless / no-cu-lossless / no-constrained-intra / no-fast-intra / open-gop / no-temporal-layers / interlace=0 / keyint=240 / min-keyint=24 / scenecut=40 / rc-lookahead=20 / lookahead-slices=8 / bframes=4 / bframe-bias=0 / b-adapt=2 / ref=3 / limit-refs=3 / no-limit-modes / weightp / no-weightb / aq-mode=1 / qg-size=32 / aq-strength=1.00 / cbqpoffs=0 / crqpoffs=0 / rd=3 / psy-rd=2.00 / rdoq-level=0 / psy-rdoq=0.00 / signhide / deblock / sao / no-sao-non-deblock / b-pyramid / cutree / no-intra-refresh / rc=abr / bitrate=61000 / qcomp=0.60 / qpmin=0 / qpmax=51 / qpstep=4 / ipratio=1.40 / pbratio=1.30
Language : English
Default : Yes
Forced : No
Color range : Limited
Color primaries : BT.709
Transfer characteristics : BT.709
Matrix coefficients : BT.601

Audio #1

ID : 2
Format : DTS
Format/Info : Digital Theater Systems
Format profile : MA / Core
Mode : 16
Format settings, Endianness : Big
Codec ID : A_DTS
Duration : 2 h 4 min
Bit rate mode : Variable / Constant
Bit rate : 5 033 kb/s / 1 509 kb/s
Channel(s) : 8 channels / 6 channels
Channel positions : Front: L C R, Side: L R, Back: L R, LFE / Front: L C R, Side: L R, LFE
Sampling rate : 48.0 kHz
Frame rate : 93.750 FPS (512 spf)
Bit depth : 24 bits
Compression mode : Lossless / Lossy
Delay relative to video : 19 s 495 ms
Stream size : 4.38 GiB (7%)
Language : English
Default : Yes
Forced : No

Audio #2
ID : 3
Format : DTS
Format/Info : Digital Theater Systems
Format profile : HRA / Core
Mode : 16
Format settings, Endianness : Big
Codec ID : A_DTS
Duration : 2 h 4 min
Bit rate mode : Constant
Bit rate : 2 046 kb/s / 1 509 kb/s
Channel(s) : 8 channels / 6 channels
Channel positions : Front: L C R, Side: L R, Back: L R, LFE / Front: L C R, Side: L R, LFE
Sampling rate : 48.0 kHz
Frame rate : 93.750 FPS (512 spf)
Bit depth : 24 bits
Compression mode : Lossy
Delay relative to video : 19 s 495 ms
Stream size : 1.78 GiB (3%)
Language : French
Default : No
Forced : No

Chapters : YES


Set on a future Earth, civilization lives above the clouds and scavengers collect ancient artifacts from the polluted surface below. An earthbound soldier, who is stuck there repairing drones that patrol and blast a savage alien life form, encounters a beautiful woman who crashed in a craft and they have an experience that forces him to question his world view.
For more about Oblivion 4K and the Oblivion 4K Blu-ray release, see Oblivion 4K Blu-ray Review published by Martin Liebman on August 18, 2016 where this Blu-ray release scored 4.0 out of 5.

Oblivion.2013.2160p.BluRay.REMUX.HEVC.DTS-HD.MA.TrueHD.7.1.Atmos.mkv

Video
Codec: HEVC / H.265
Resolution: Upscaled 4K (2160p)
HDR: HDR10
Aspect ratio: 2.39:1
Original aspect ratio: 2.39:1

Audio
English: Dolby Atmos
English: Dolby TrueHD 7.1 (48kHz, 24-bit)
French: Dolby Digital 5.1
Spanish: Dolby Digital 5.1

Subtitles

English SDH, French, Spanish

Screenshots of the movie:









File size: 58.80+58.72 GB


download 4k movies

Watch the movie trailer Oblivion (2013) 2160p 4K UltraHD BluRay (x265 HEVC 10bit) DTSHD En DTSHRA Fr MSubs+ REMUX
Watch the movie trailer
Comments
4kmovies15 December 2017, 12:02
added REMUX movie Oblivion.2013.2160p.BluRay.REMUX.HEVC.DTS-HD.MA.TrueHD.7.1.Atmos.mkv
  • bowtiesmilelaughingblushsmileyrelaxedsmirk
    heart_eyeskissing_heartkissing_closed_eyesflushedrelievedsatisfiedgrin
    winkstuck_out_tongue_winking_eyestuck_out_tongue_closed_eyesgrinningkissingstuck_out_tonguesleeping
    worriedfrowninganguishedopen_mouthgrimacingconfusedhushed
    expressionlessunamusedsweat_smilesweatdisappointed_relievedwearypensive
    disappointedconfoundedfearfulcold_sweatperseverecrysob
    joyastonishedscreamtired_faceangryragetriumph
    sleepyyummasksunglassesdizzy_faceimpsmiling_imp
    neutral_faceno_mouthinnocent
Quantico HDTV 720p AC3 5.1 | My Boss My ... | Sci-Fi Fantasy